#TITLE:Xin Ge Shi Chang;
#SUBTITLE:;
#ARTIST:Nicholas Teo;
#TITLETRANSLIT:Xin Ge Shi Chang;
#SUBTITLETRANSLIT:;
#ARTISTTRANSLIT:Truong Dong Luong;
#CREDIT:;
#BANNER:Xin Ge Shi Chang-bn.png;
#BACKGROUND:Xin Ge Shi Chang-bg.png;
#LYRICSPATH:;
#CDTITLE:pm4cd.png;
#MUSIC:Xin Ge Shi Chang.mp3;
#OFFSET:0.020;
#SAMPLESTART:59.490;
#SAMPLELENGTH:20.000;
#SELECTABLE:YES;
#BPMS:0.000=130.000;
#STOPS:;
#BGCHANGES:0.000=Xin Ge Shi CHang - Nicholas Teo.avi=1.000=1=1=0,
492.000=Xin Ge Shi Chang-bg.png=1.000=0=0=1,
99999=-nosongbg-=1.000=0=0=0 // don't automatically add -songbackground-
;
// cache tags:
#FIRSTBEAT:1.000;
#LASTBEAT:492.000;
#SONGFILENAME:Songs/Music V.I.P ^_^/Xin Ge Shi Chang/Xin Ge Shi Chang.sm;
#HASMUSIC:1;
#HASBANNER:1;
#MUSICLENGTH:232.104;
// end cache tags

//---------------dance-single - ----------------
#NOTES:
     dance-single:
     :
     Hard:
     17:
     1.000,1.000,1.000,0.099,0.687,1284.000,704.000,23.000,0.000,234.000:
0000
0000
0001
0010
0100
1000
0100
0010
,
0001
0010
0100
0001
1000
0100
0010
0001
,
0010
1000
0101
1000
0100
0010
0100
0010
,
0001
0100
1000
0100
0010
0001
0010
0100
,
1000
0010
0101
0010
0001
0100
0010
1000
,
0100
0010
0001
0100
0010
0001
1000
0100
,
0010
0100
1010
0001
0010
0100
1000
0100
,
0010
0000
0001
0000
1110
0000
1011
0000
0111
0000
1101
0000
1010
0101
1010
0101
,
1010
0000
0000
0101
0000
0000
1010
0000
0101
0000
1010
0000
1101
0000
0000
0000
0000
0000
0010
0000
0000
0000
0000
0000
1100
0000
0000
0000
0000
0000
0001
0000
0000
0000
0000
0000
0101
0000
0000
0000
0000
0000
0100
0000
0000
0000
0000
0000
,
0011
1000
0110
0001
1010
0010
0101
1010
,
0101
0001
1010
0100
0011
0001
1010
0100
,
1001
1000
0011
0100
0101
0001
1100
0011
,
1100
1000
0101
0010
1100
0001
1010
1000
,
0101
0001
1100
0010
0101
0100
0110
1001
,
0110
0001
1010
1000
0101
0001
1100
0010
,
0101
0000
1000
0000
0111
0000
0001
0000
1110
0000
0010
0000
1100
0010
0001
0010
,
1100
0010
0100
0010
0001
0000
0001
0010
1100
0000
0001
0010
1100
0000
0001
0010
,
1100
0000
0010
0000
0101
0000
1000
0100
0011
0000
1000
0100
0011
0000
1000
0100
,
0011
0000
1000
0000
0110
0000
0001
0100
1010
0000
0001
0100
1010
0000
0001
0100
,
1010
0000
0010
0100
0011
0000
0010
0100
0011
0000
0010
0100
0011
0000
0010
0100
,
0011
0000
0001
0000
1100
0000
1000
0010
0101
0000
1000
0010
0101
0000
1000
0010
,
0101
0000
0010
0000
1100
0000
0001
0010
1001
0000
0001
0010
1001
0000
0001
0010
,
1001
0000
0100
0000
0011
0000
1000
0100
1010
0000
1000
0100
1010
0000
1000
0100
,
1010
0000
0100
0001
1100
0000
0100
0001
1100
0000
0100
0001
1100
0000
0001
1000
,
0110
0001
1000
0100
0021
0000
0001
0000
1001
0000
1000
0000
0101
0000
0100
0000
,
1100
0001
0131
0001
1100
0010
0101
0001
,
1100
0100
1102
0010
0110
1000
1010
0100
,
0110
1000
2103
0001
0110
0100
0011
0001
,
0101
0010
3012
0010
1100
0010
1010
0100
,
0110
1000
1103
0010
0101
0010
1001
0100
,
0011
0000
1000
0000
0011
0100
1000
0100
0011
0100
1000
0100
0011
0100
1000
0100
,
0011
0100
0010
0001
1101
0010
0001
0010
1101
0010
0001
0010
1101
0010
0001
0010
,
1101
0010
0100
0010
1101
0000
1001
0000
1100
0000
0011
0000
0110
0000
1001
0000
,
0101
1010
0101
0110
1100
0101
0011
1010
,
1100
1001
0110
1001
0011
0110
1100
0110
,
0011
1100
0011
1010
0101
1010
1001
0110
,
1001
1010
0011
0110
0101
0110
1010
1001
,
1010
1100
1001
0101
0011
0110
1001
1010
,
1100
0110
0101
1010
0011
0110
1001
1100
,
0110
0000
1001
0000
0111
0000
1110
0000
1011
0000
1101
0010
1001
0110
1001
0110
,
1001
0110
1001
0110
1000
0000
0100
0000
0010
0000
1000
0000
0200
0000
0000
0000
,
0010
0000
0000
0000
0311
0000
0100
1000
0011
0000
0100
1000
0011
0000
0100
1000
,
0011
0000
0100
0000
1001
0000
0001
0010
0101
0000
0001
0010
0101
0000
0001
0010
,
0101
0000
0100
0000
0110
0000
1000
0010
1001
0000
1000
0010
1001
0000
1000
0010
,
1001
0000
1000
0100
1010
0000
1000
0100
1010
0000
1000
0100
1010
0000
1000
0100
,
1010
0100
0001
0100
1001
0000
0100
0010
0101
0000
0100
0010
0101
0000
0100
0010
,
0101
0000
0001
0000
1100
0000
0010
0100
1010
0000
0010
0100
1010
0000
0010
0100
,
1010
0000
0010
0000
0101
0000
0010
0001
1100
0000
0010
0001
1100
0000
0010
0001
,
1100
0000
0100
0010
1001
0000
0100
0010
1001
0000
0100
0010
1001
0000
0100
0010
,
1001
0010
0100
1000
0210
0000
0001
0000
0011
0000
1000
0000
1001
0000
0001
0000
,
0011
0001
1310
1000
1100
0010
0101
0001
,
1010
0100
2100
0001
0011
0100
0101
0010
,
0110
0001
3102
0100
1100
0010
0110
1000
,
1100
0010
1023
0100
1001
1000
0101
0100
,
1100
0001
1031
1000
1100
0010
0101
0001
,
1100
0000
0100
0000
1010
0100
0001
0100
1010
0100
0001
0100
1010
0100
1000
0010
,
0101
0010
1000
0010
1101
0010
1000
0010
1101
0010
0100
0010
1101
0010
0100
0010
,
1101
0010
0100
1000
0111
0000
0101
0000
0110
0000
1100
0000
1011
0000
1001
0000
,
0101
0011
0111
1001
1010
0101
1110
1100
,
0011
0110
1101
1100
0101
1010
1011
0110
,
1001
1100
0111
0011
0110
1100
1101
0110
,
1001
0101
1011
1010
1001
0101
1110
1100
,
0110
0011
1101
1010
1100
1001
0111
0011
,
0101
1001
1110
1010
0110
0011
1101
0101
,
0110
0000
1100
0000
1011
0000
1110
0000
0111
0000
1011
0100
0011
1100
0011
1100
,
0011
1100
0011
1100
0111
0000
1001
0000
1011
0000
0110
0000
1101
0000
0001
0000
,
1110
1001
0111
0010
0111
0001
1101
0110
,
1011
0010
1110
0101
1101
0110
1011
0100
,
0111
1001
1101
0101
1110
0101
1011
0110
,
1101
0100
1011
1100
0111
1001
1110
0001
,
1101
0011
0111
1010
1110
1001
1011
1100
,
1110
0001
1101
1010
0111
0011
1101
1000
,
0111
0000
0110
0000
1101
0000
1001
0000
0111
0000
1001
0100
1010
0101
1010
0101
,
1010
0101
1010
0101
1110
0000
0100
0000
0010
0000
0100
0000
1001
0000
1100
0000
,
0000
0101
0000
0000
1101
0000
0010
0000
0100
0000
1010
0000
0001
0000
0100
0000
,
0010
1100
0111
1000
0100
0010
0001
1010
,
0010
0000
0001
0000
1110
0000
0000
0011
1100
0000
1100
0011
1100
0011
1100
0011
,
1100
0011
1100
0011
1101
0000
0010
0000
1000
0000
0010
0000
1001
0000
0110
0000
,
0000
0110
0000
0000
1100
0000
0011
0000
1001
0000
1010
0000
0100
0000
1000
0000
,
0001
0110
1101
1000
0010
1000
0001
0110
,
0000
0000
1100
0000
1010
0000
0001
0000
0100
0000
1010
0101
0000
0000
0110
0000
,
0000
1001
0110
0000
0002
0000
0010
0000
0100
0000
1000
0000
0100
0000
0010
0000
,
0100
1000
0103
0010
0001
1000
0100
0010
,
0001
0010
0201
0010
1000
0010
0001
0010
,
1000
0010
1302
0010
0100
1000
0100
0010
,
0100
1000
0123
1000
0101
0001
1100
1000
,
0101
0001
1130
1000
0011
0100
1010
0100
,
0011
0100
2001
0010
0101
0010
0101
0010
,
0101
0010
0111
0100
0111
0100
0111
3100
,
1010
0000
0100
0000
1011
0000
1000
0100
1010
0000
0100
0000
1100
1100
1100
0110
,
0110
0110
0011
0011
1111
0000
0101
0000
0011
0000
0110
0000
1101
0000
0011
0000
,
1001
1100
0111
0110
1001
1100
1110
1001
,
0101
0110
1101
1010
0110
0101
1011
1001
,
0110
0011
1101
1010
1100
1001
0111
1001
,
0110
1010
1111
0110
0101
1010
1101
0011
,
0110
1100
1011
1100
1001
0011
1110
1001
,
1100
0011
1111
1001
0101
1010
1101
0011
,
0110
1100
0111
1101
1011
0111
1011
1110
,
1101
0000
1011
0000
1011
0100
1001
0010
1100
0001
1010
0100
1001
0010
1100
0001
,
0110
1000
0101
0010
1001
0100
0011
1000
0101
0010
1001
0010
1100
0001
1010
0100
,
1001
0100
0011
1000
0101
0010
1100
0010
1001
0100
0011
0100
1010
0001
1100
0010
,
0101
0010
1001
0100
0011
1000
0101
0010
1100
0001
1010
0100
1001
0010
1100
0001
,
1010
0100
0011
1000
0111
1000
0011
1000
0101
0010
1100
0010
1001
0100
1010
0100
,
0011
1000
0101
0010
1100
0001
0110
1000
0101
0010
1001
0100
0011
1000
0101
0010
,
1100
0001
1010
0100
1011
0100
0011
0100
1001
0010
1100
0001
1010
0100
0011
1000
,
0101
0010
1100
0001
1110
0001
0110
1000
0111
1000
0110
0001
1110
1001
0110
1001
,
0110
1001
0110
1001
0111
1000
0110
0001
1110
0001
1010
0100
1011
0100
1001
0010
,
1101
0010
1001
0100
1011
0100
1010
0001
1110
0001
0110
1000
0111
1000
0101
0010
,
1101
0010
1100
0010
1101
0010
0101
1000
0111
1000
0101
0010
1101
0010
1001
0100
,
1011
0100
0011
1000
0111
1000
0110
0001
1110
0001
0110
1000
0111
1000
0101
0010
,
1101
0010
0101
1000
0112
1000
1100
0010
1100
0010
1010
0100
1100
0010
0110
1000
,
0110
1000
1010
0010
1103
0001
0110
1000
0111
1000
0101
1000
0111
1000
0101
0010
,
1101
0010
1001
0010
2101
0010
0110
0001
0011
0100
0101
0010
0011
0001
0101
0010
,
0110
3001
1010
0100
1011
0100
0011
0100
1011
0100
1001
0010
0101
1010
0101
1010
,
0101
1010
0101
1010
0112
1000
0110
0010
1100
0010
1010
0100
0110
1000
1010
0100
,
0110
1000
1100
0010
1123
0001
0101
1000
1100
0001
1001
0100
0101
0001
1001
0100
,
1100
0001
0101
1000
1231
0010
1001
0001
1010
1000
0011
1000
1010
0001
0011
1000
,
1010
0001
0011
1000
2311
0100
0011
0100
0110
0001
0101
0010
0110
0001
0101
0010
,
0011
0100
0101
0010
3111
1000
0101
0010
1101
0010
1100
0010
1101
0010
1100
0001
,
1110
0001
1010
0100
1011
0100
0011
0100
1011
0100
1001
0010
1101
0010
0101
1000
,
0111
1000
0110
0001
1110
0001
1100
0010
1101
0010
0101
1000
0111
1000
0110
1000
,
0111
1000
0011
1000
0111
1000
0101
0010
1101
0010
1100
0001
1110
0001
1100
0010
,
2202
0000
0000
0000
,
3303
0000
0000
0000
;

//---------------dance-single - ----------------
#NOTES:
     dance-single:
     :
     Medium:
     1:
     0.000,0.000,0.000,0.000,0.000,0.000,0.000,0.000,0.000,0.000:
0000
0000
0000
0000
;
